19 de Febrero de 2018, 12:38:28 am

Autor Tema: Monster Hunt[2015][BDRip1080p][Audio y subtitulos chino, esp latino][comedia]  (Leído 367 veces)

Desconectado duke115

  • Administrador
  • Usuario Héroe
  • *****
  • Mensajes: 1327
  • Karma: 152
Advertisement

Zhuo yao ji (Monster Hunt)



Título original
Zhuo yao ji (Monster Hunt)
Año
2015
Duración
112 min.
País
China
Dirección
Raman Hui
Guion
Alan Yuen
Música
Leon Ko
Fotografía
Anthony Pun
Reparto
Eric Tsang,  Wallace Chung,  Bai Baihe,  Sandra Ng,  Yan Ni,  Jiang Wu,  Elaine Jin, Yao Chen,  Guo Xiaodong,  Kang Kai,  Ludi Lin
Productora
Coproducción China-Hong Kong; Champion Star Pictures / Dream Sky / Edko Films
Género
Fantástico. Acción. Comedia. Aventuras | Monstruos. 3-D





El hijo de la realeza del clan de los monstruos es amenazado por los cazadores de criaturas que impiden que se mezclen con los humanos. El hijo de un famoso espadachín, pero poco dotado para el heroísmo, terminará siendo el encargado de proteger al heredero del trono, enfrentándose a monstruos malignos, cazamonstruos y otros enemigos. (FILMAFFINITY)




Código: [Seleccionar]
Format                      : Matroska
Format version              : Version 4 / Version 2
File size                   : 3.71 GiB
Duration                    : 1 h 57 min
Video
ID                          : 1
Format                      : AVC
Format/Info                 : Advanced Video Codec
Format profile              : High@L4.1
Format settings             : CABAC / 4 Ref Frames
Format settings, CABAC      : Yes
Format settings, RefFrames  : 4 frames
Codec ID                    : V_MPEG4/ISO/AVC
Duration                    : 1 h 57 min
Bit rate                    : 3 900 kb/s
Width                       : 1 920 pixels
Height                      : 804 pixels
Display aspect ratio        : 2.40:1
Frame rate mode             : Constant
Frame rate                  : 23.976 (24000/1001) FPS
Audio #1
ID                          : 2
Format                      : AC-3
Format/Info                 : Audio Coding 3
Format settings, Endianness : Big
Codec ID                    : A_AC3
Duration                    : 1 h 55 min
Bit rate mode               : Constant
Bit rate                    : 192 kb/s
Channel(s)                  : 2 channels
Channel positions           : Front: L R
Sampling rate               : 48.0 kHz
Frame rate                  : 31.250 FPS (1536 SPF)
Bit depth                   : 16 bits
Compression mode            : Lossy
Stream size                 : 159 MiB (4%)
Title                       : Latino
Language                    : Spanish
Service kind                : Complete Main
Audio #2
ID                          : 3
Format                      : AC-3
Format/Info                 : Audio Coding 3
Format settings, Endianness : Big
Codec ID                    : A_AC3
Duration                    : 1 h 57 min
Bit rate mode               : Constant
Bit rate                    : 448 kb/s
Channel(s)                  : 6 channels
Channel positions           : Front: L C R, Side: L R, LFE
Sampling rate               : 48.0 kHz
Frame rate                  : 31.250 FPS (1536 SPF)
Bit depth                   : 16 bits
Compression mode            : Lossy
Stream size                 : 375 MiB (10%)
Language                    : Chinese








 

 

 


Pass: cineasiatico.duke115




Desconectado metepuyas

  • Usuario Sr.
  • ****
  • Mensajes: 254
  • Karma: 0
Re:Monster Hunt[2015][BDRip1080p][Audio y subtitulos chino, esp latino][comedia]
« Respuesta #1 en: 18 de Enero de 2018, 01:10:30 pm »
gracias

Desconectado ultrabakan

  • Usuario Sr.
  • ****
  • Mensajes: 318
  • Karma: -1
Re:Monster Hunt[2015][BDRip1080p][Audio y subtitulos chino, esp latino][comedia]
« Respuesta #2 en: 22 de Enero de 2018, 10:52:00 pm »
muchas gracias

Desconectado bartaleph

  • Novato
  • *
  • Mensajes: 40
  • Karma: -1
Re:Monster Hunt[2015][BDRip1080p][Audio y subtitulos chino, esp latino][comedia]
« Respuesta #3 en: 23 de Enero de 2018, 12:03:25 am »
gracias

Cine Asiatico

Re:Monster Hunt[2015][BDRip1080p][Audio y subtitulos chino, esp latino][comedia]
« Respuesta #3 en: 23 de Enero de 2018, 12:03:25 am »

Desconectado emanu21

  • Usuario Sr.
  • ****
  • Mensajes: 327
  • Karma: -1
Re:Monster Hunt[2015][BDRip1080p][Audio y subtitulos chino, esp latino][comedia]
« Respuesta #4 en: 25 de Enero de 2018, 11:45:10 am »
gracias

Desconectado karol84

  • Usuario Jr
  • **
  • Mensajes: 57
  • Karma: 1
Re:Monster Hunt[2015][BDRip1080p][Audio y subtitulos chino, esp latino][comedia]
« Respuesta #5 en: 31 de Enero de 2018, 11:33:24 am »
Genial!!!

 


SimplePortal 2.3.5 © 2008-2012, SimplePortal