20 de Noviembre de 2017, 10:35:25 am

Autor Tema: Zombiology[2017][WEBdl 1080p][Aud. Esp Lat. y Chino/Sub Esp Eng][Zombis]  (Leído 965 veces)

Desconectado duke115

  • Administrador
  • Usuario Héroe
  • *****
  • Mensajes: 1315
  • Karma: 126
Zombiology[2017][WEBdl 1080p][Aud. Esp Lat. y Chino/Sub Esp Eng][Zombis]
« en: 02 de Noviembre de 2017, 12:08:11 am »
Advertisement

Zombiology

Título original
Gam man da song si
Año
2017
Duración
105 min.
País
Hong Kong
Director
Alan Lo
Guion
Nick Cheuk
Reparto
Kai-Chung Cheung,  Alex Man,  Carrie Ng,  Cherry Ngan,  Michael Ning,  Angie Shum, Venus Wong
Productora
Coproducción Hong Kong-China; Creation Cabin / Entertaining Power / KD Multimedia / MGK Multimedia / Sun Entertainment Culture
Género
Acción. Comedia | Zombis




Lone y Yeung, dos geeks, ven cómo sus fantasías de cómic se vuelven reales y provocan un apocalipsis zombie en Hong Kong. Este peculiar dúo tendrá que ingeniárselas para sacar a su familia de esta terrible crisis, con la ayuda de unas armas caseras. (FILMAFFINITY)



Format                      : Matroska
Format version              : Version 4 / Version 2
File size                   : 3.82 GiB
Duration                    : 1 h 46 min
Video
ID                          : 1
Format                      : AVC
Format/Info                 : Advanced Video Codec
Format profile              : High@L4
Format settings             : CABAC / 5 Ref Frames
Format settings, CABAC      : Yes
Format settings, RefFrames  : 5 frames
Codec ID                    : V_MPEG4/ISO/AVC
Duration                    : 1 h 46 min
Bit rate                    : 4 541 kb/s
Width                       : 1 916 pixels
Height                      : 804 pixels
Display aspect ratio        : 2.40:1
Frame rate mode             : Constant
Frame rate                  : 23.976

Audio #1
ID                          : 2
Format                      : AC-3
Format/Info                 : Audio Coding 3
Format settings, Endianness : Big
Codec ID                    : A_AC3
Duration                    : 1 h 46 min
Bit rate mode               : Constant
Bit rate                    : 192 kb/s
Channel(s)                  : 2 channels
Channel positions           : Front: L R
Sampling rate               : 48.0 kHz
Frame rate                  : 31.250 FPS (1536 SPF)
Bit depth                   : 16 bits
Compression mode            : Lossy
Stream size                 : 147 MiB (4%)
Title                       : Latino
Language                    : Spanish
Audio #2
ID                          : 3
Format                      : AC-3
Format/Info                 : Audio Coding 3
Format settings, Endianness : Big
Codec ID                    : A_AC3
Duration                    : 1 h 46 min
Bit rate mode               : Constant
Bit rate                    : 384 kb/s
Channel(s)                  : 6 channels
Channel positions           : Front: L C R, Side: L R, LFE
Sampling rate               : 48.0 kHz
Frame rate                  : 31.250 FPS (1536 SPF)
Bit depth                   : 16 bits
Compression mode            : Lossy
Stream size                 : 293 MiB (8%)
Title                       : Chinese
Language                    : Chinese
Service kind                : Complete Main
Default                     : No
Forced                      : No




se las debo



 

 


Pass: cineasiatico.duke115



« Última modificación: 07 de Noviembre de 2017, 12:39:30 am por duke115 »

Desconectado reinkaos

  • Usuario Completo
  • ***
  • Mensajes: 145
  • Karma: 0
Re:Zombiology[2017][WEBdl 1080p][Aud. Esp Lat. y Chino/Sub Esp Eng][Zombis]
« Respuesta #1 en: 02 de Noviembre de 2017, 02:35:59 am »
viendo que tal... muchas gracias

Desconectado gaso6803

  • Usuario Completo
  • ***
  • Mensajes: 138
  • Karma: 2
Re:Zombiology[2017][WEBdl 1080p][Aud. Esp Lat. y Chino/Sub Esp Eng][Zombis]
« Respuesta #2 en: 02 de Noviembre de 2017, 02:50:28 am »
gracias por el aporte

Desconectado magsir01

  • Novato
  • *
  • Mensajes: 25
  • Karma: 0
Re:Zombiology[2017][WEBdl 1080p][Aud. Esp Lat. y Chino/Sub Esp Eng][Zombis]
« Respuesta #3 en: 02 de Noviembre de 2017, 07:05:14 pm »
gracias por el aporte

Cine Asiatico

Re:Zombiology[2017][WEBdl 1080p][Aud. Esp Lat. y Chino/Sub Esp Eng][Zombis]
« Respuesta #3 en: 02 de Noviembre de 2017, 07:05:14 pm »

Desconectado dark_lover

  • Usuario Héroe
  • *****
  • Mensajes: 523
  • Karma: 7
Re:Zombiology[2017][WEBdl 1080p][Aud. Esp Lat. y Chino/Sub Esp Eng][Zombis]
« Respuesta #4 en: 03 de Noviembre de 2017, 12:11:16 am »
gracias

Desconectado Daniel Cortes

  • Novato
  • *
  • Mensajes: 5
  • Karma: 0
Re:Zombiology[2017][WEBdl 1080p][Aud. Esp Lat. y Chino/Sub Esp Eng][Zombis]
« Respuesta #5 en: 03 de Noviembre de 2017, 12:35:25 am »
se agradece

Desconectado touhou21

  • Novato
  • *
  • Mensajes: 7
  • Karma: 1
Re:Zombiology[2017][WEBdl 1080p][Aud. Esp Lat. y Chino/Sub Esp Eng][Zombis]
« Respuesta #6 en: 03 de Noviembre de 2017, 03:17:32 am »
Muchas Gracias

Desconectado miguel3000

  • Novato
  • *
  • Mensajes: 21
  • Karma: 0
Re:Zombiology[2017][WEBdl 1080p][Aud. Esp Lat. y Chino/Sub Esp Eng][Zombis]
« Respuesta #7 en: 04 de Noviembre de 2017, 04:02:10 am »
gracias gracias

Desconectado tonietlo

  • Usuario Jr
  • **
  • Mensajes: 75
  • Karma: 0
Re:Zombiology[2017][WEBdl 1080p][Aud. Esp Lat. y Chino/Sub Esp Eng][Zombis]
« Respuesta #8 en: 04 de Noviembre de 2017, 01:51:13 pm »
gracias  ;D

Desconectado melting

  • Usuario Sr.
  • ****
  • Mensajes: 406
  • Karma: 11
Re:Zombiology[2017][WEBdl 1080p][Aud. Esp Lat. y Chino/Sub Esp Eng][Zombis]
« Respuesta #9 en: 05 de Noviembre de 2017, 11:48:17 am »
Zombis en Hong Kong? Wow!

Gracias

Desconectado RYU_UZUMAKI

  • Usuario Sr.
  • ****
  • Mensajes: 377
  • Karma: 3
Re:Zombiology[2017][WEBdl 1080p][Aud. Esp Lat. y Chino/Sub Esp Eng][Zombis]
« Respuesta #10 en: 09 de Noviembre de 2017, 04:00:09 am »
novedad en calidad eh .

Desconectado snaider17

  • Novato
  • *
  • Mensajes: 3
  • Karma: 0
Re:Zombiology[2017][WEBdl 1080p][Aud. Esp Lat. y Chino/Sub Esp Eng][Zombis]
« Respuesta #11 en: 11 de Noviembre de 2017, 12:57:08 am »
Gracias!

Desconectado Kou-Pu-Li

  • Usuario Jr
  • **
  • Mensajes: 83
  • Karma: 0
Re:Zombiology[2017][WEBdl 1080p][Aud. Esp Lat. y Chino/Sub Esp Eng][Zombis]
« Respuesta #12 en: 12 de Noviembre de 2017, 03:22:48 am »
una de zombies de hk?, a ver si merece la pena, gracias y un saludo

Desconectado ShalaShask

  • Usuario Completo
  • ***
  • Mensajes: 178
  • Karma: 8
Re:Zombiology[2017][WEBdl 1080p][Aud. Esp Lat. y Chino/Sub Esp Eng][Zombis]
« Respuesta #13 en: 16 de Noviembre de 2017, 05:31:22 pm »
zombies y comedia? a ver como resulta esto,

gracias y saludos

 


SimplePortal 2.3.5 © 2008-2012, SimplePortal