19 de Febrero de 2018, 12:37:41 am

Autor Tema: Blade of the Immortal[2017][BDrip1080p][AudioJap y esp Lat. Sub esp][Samurai]  (Leído 351 veces)

Desconectado duke115

  • Administrador
  • Usuario Héroe
  • *****
  • Mensajes: 1327
  • Karma: 152
Advertisement

Mugen no jûnin (Blade of the Immortal)


Título original
Mugen no jûnin (Blade of the Immortal)
Año
2017
Duración
140 min.
País
Japón
Dirección
Takashi Miike
Guion
Tetsuya Oishi (Manga: Hiroaki Samura)
Música
Koji Endo
Fotografía
Nobuyasu Kita
Reparto
Kimura Takuya, Hana Sugisaki, Sôta Fukushi, Erika Toda, Chiaki Kuriyama, Kazuki Kitamura, Min Tanaka, Tsutomu Yamazaki, Ebizo Ichikawa, Hayato Ichihara, Shinnosuke Mitsushima
Productora
Warner Bros. Pictures / Oriental Light and Magic (OLM) / Recorded Picture Company (RPC)
Género
Acción | Samuráis. Japón feudal. Venganza. Manga. Live-Action





Manji ve cómo su hermana pequeña es asesinada frente a él, iniciándo entonces su venganza. Una misteriosa mujer aparecerá ante Manji, otorgándole eterna juventud e inmortalidad. Entonces, los padres de Rin Asano serán asesinados por un grupo de espadachines llamado Itto ruy, siendo el estudio de esgrima de sus padres destruido. Para vengarse, pedirá ayuda a Manji, y ambos lucharán contra los Itto ruy. (FILMAFFINITY)




Código: [Seleccionar]
Format                      : Matroska
Format version              : Version 4 / Version 2
File size                   : 3.97 GiB
Duration                    : 2 h 20 min
Video
ID                          : 1
Format                      : AVC
Format/Info                 : Advanced Video Codec
Format profile              : High@L4.1
Format settings             : CABAC / 4 Ref Frames
Format settings, CABAC      : Yes
Format settings, RefFrames  : 4 frames
Codec ID                    : V_MPEG4/ISO/AVC
Duration                    : 2 h 20 min
Bit rate                    : 3 500 kb/s
Width                       : 1 906 pixels
Height                      : 804 pixels
Display aspect ratio        : 2.40:1
Frame rate mode             : Constant
Frame rate                  : 23.976 (24000/1001) FPS
Audio #1
ID                          : 2
Format                      : AC-3
Format/Info                 : Audio Coding 3
Format settings, Endianness : Big
Codec ID                    : A_AC3
Duration                    : 2 h 20 min
Bit rate mode               : Constant
Bit rate                    : 192 kb/s
Channel(s)                  : 2 channels
Channel positions           : Front: L R
Sampling rate               : 48.0 Hz
Frame rate                  : 31.250 FPS (1536 SPF)
Bit depth                   : 16 bits
Compression mode            : Lossy
Delay relative to video     : 23 ms
Stream size                 : 194 MiB (5%)
Language                    : Spanish
Audio #2
ID                          : 3
Format                      : AC-3
Format/Info                 : Audio Coding 3
Format settings, Endianness : Big
Codec ID                    : A_AC3
Duration                    : 2 h 20 min
Bit rate mode               : Constant
Bit rate                    : 384 kb/s
Channel(s)                  : 6 channels
Channel positions           : Front: L C R, Side: L R, LFE
Sampling rate               : 48.0 kHz
Frame rate                  : 31.250 FPS (1536 SPF)
Bit depth                   : 16 bits
Compression mode            : Lossy
Delay relative to video     : -5 ms
Stream size                 : 387 MiB (10%)
Title                       : Surround
Language                    : Japanese







 

 


 

Pass: cineasiatico.duke115




Desconectado elamauta

  • Usuario Sr.
  • ****
  • Mensajes: 289
  • Karma: 1
Re:Blade of the Immortal[2017][BDrip1080p][AudioJap y esp Lat. Sub esp][Samurai]
« Respuesta #1 en: 23 de Enero de 2018, 06:12:57 pm »
Gracias

Desconectado depeche86

  • Usuario Completo
  • ***
  • Mensajes: 234
  • Karma: 2
Re:Blade of the Immortal[2017][BDrip1080p][AudioJap y esp Lat. Sub esp][Samurai]
« Respuesta #2 en: 30 de Enero de 2018, 07:15:56 am »
excelente

Desconectado rinzler

  • Novato
  • *
  • Mensajes: 2
  • Karma: 0
Re:Blade of the Immortal[2017][BDrip1080p][AudioJap y esp Lat. Sub esp][Samurai]
« Respuesta #3 en: 12 de Febrero de 2018, 06:29:35 am »
gracias

Cine Asiatico

Re:Blade of the Immortal[2017][BDrip1080p][AudioJap y esp Lat. Sub esp][Samurai]
« Respuesta #3 en: 12 de Febrero de 2018, 06:29:35 am »

Desconectado dark_lover

  • Usuario Héroe
  • *****
  • Mensajes: 542
  • Karma: 7
Re:Blade of the Immortal[2017][BDrip1080p][AudioJap y esp Lat. Sub esp][Samurai]
« Respuesta #4 en: 16 de Febrero de 2018, 03:05:16 am »
gracias

 


SimplePortal 2.3.5 © 2008-2012, SimplePortal