19 de Febrero de 2018, 12:40:44 am

Autor Tema: Godzilla: Planet of the Monsters[2017][BDRip1080p][Audio jap.y espl Lat./Sub es]  (Leído 373 veces)

Desconectado duke115

  • Administrador
  • Usuario Héroe
  • *****
  • Mensajes: 1327
  • Karma: 152
Advertisement

Godzilla: Planet of the Monsters

Título original
Gojira: Kaijū Wakusei
AKA
Godzilla: Planet of the Monsters
Año
2017
Duración
89 min.
País
Japón
Dirección
Kobun Shizuno, Hiroyuki Seshita
Guion
Gen Urobuchi, Sadayuki Murai, Yusuke Kozaki (Historia original: Gen Urobuchi)
Música
Takayuki Hattori
Fotografía
Animation
Reparto
Animation
Productora
Polygon Pictures / Toho Company
Género
Animación. Ciencia ficción. Acción. Drama | Supervivencia. Monstruos






En un futuro los Kaijus lograrán conquistar la Tierra. La humanidad deberá dejar el que fuera su hogar durante mucho tiempo para mudarse a otro planeta que por desgracia no podrá albergarlos. Su única esperanza de sobrevivir es volver a la Tierra y vencer a Godzilla. Sin embargo, tras su regreso habrán pasado 20.000 años de dominio Kaiju, por lo que la humanidad deberá enfrentarse a lo peor. (FILMAFFINITY)




Código: [Seleccionar]
Format                      : Matroska

Format version              : Version 4 / Version 2

File size                   : 2.82 GiB

Duration                    : 1 h 28 min

Video

ID                          : 1

Format                      : AVC

Format/Info                 : Advanced Video Codec

Format profile              : Main@L4

Format settings             : CABAC / 3 Ref Frames

Format settings, CABAC      : Yes

Format settings, RefFrames  : 3 frames

Codec ID                    : V_MPEG4/ISO/AVC

Duration                    : 1 h 28 min

Bit rate mode               : Variable

Bit rate                    : 3 830 kb/s

Maximum bit rate            : 5 745 kb/s

Width                       : 1 920 pixels

Height                      : 1 080 pixels

Display aspect ratio        : 16:9

Frame rate mode             : Constant

Frame rate                  : 24.000 FPS

Audio #1

ID                          : 2

Format                      : AC-3

Format/Info                 : Audio Coding 3

Format settings, Endianness : Big

Codec ID                    : A_AC3

Duration                    : 1 h 28 min

Bit rate mode               : Constant

Bit rate                    : 384 kb/s

Channel(s)                  : 6 channels

Channel positions           : Front: L C R, Side: L R, LFE

Sampling rate               : 48.0 kHz

Frame rate                  : 31.250 FPS (1536 SPF)

Bit depth                   : 16 bits

Compression mode            : Lossy

Stream size                 : 243 MiB (8%)

Title                       : Latino

Language                    : Spanish

Audio #2

ID                          : 3

Format                      : AC-3

Format/Info                 : Audio Coding 3

Format settings, Endianness : Big

Codec ID                    : A_AC3

Duration                    : 1 h 28 min

Bit rate mode               : Constant

Bit rate                    : 384 kb/s

Channel(s)                  : 6 channels

Channel positions           : Front: L C R, Side: L R, LFE

Sampling rate               : 48.0 kHz

Frame rate                  : 31.250 FPS (1536 SPF)

Bit depth                   : 16 bits

Compression mode            : Lossy

Stream size                 : 243 MiB (8%)

Title                       : Japonés

Language                    : Japanese







 

 


 


Pass: cineasiatico.duke115




Desconectado magsir01

  • Novato
  • *
  • Mensajes: 29
  • Karma: 0
Re:Godzilla: Planet of the Monsters[2017][BDRip1080p][Audio jap.y espl Lat./Sub es]
« Respuesta #1 en: 19 de Enero de 2018, 10:14:17 pm »
muchas gracias, muy buen aporte ;D

Desconectado jibi

  • Usuario Jr
  • **
  • Mensajes: 92
  • Karma: 0
Re:Godzilla: Planet of the Monsters[2017][BDRip1080p][Audio jap.y espl Lat./Sub es]
« Respuesta #2 en: 20 de Enero de 2018, 08:43:17 pm »
Gracias!!

Desconectado kunkuncito

  • Novato
  • *
  • Mensajes: 45
  • Karma: 0
Re:Godzilla: Planet of the Monsters[2017][BDRip1080p][Audio jap.y espl Lat./Sub es]
« Respuesta #3 en: 21 de Enero de 2018, 11:10:18 am »
tanoshii

Cine Asiatico

Re:Godzilla: Planet of the Monsters[2017][BDRip1080p][Audio jap.y espl Lat./Sub es]
« Respuesta #3 en: 21 de Enero de 2018, 11:10:18 am »

Desconectado enterado

  • Usuario Completo
  • ***
  • Mensajes: 144
  • Karma: 2
Re:Godzilla: Planet of the Monsters[2017][BDRip1080p][Audio jap.y espl Lat./Sub es]
« Respuesta #4 en: 21 de Enero de 2018, 07:15:42 pm »
no sabia de su existencia gracias

Desconectado lolo241

  • Usuario Completo
  • ***
  • Mensajes: 119
  • Karma: 0
Re:Godzilla: Planet of the Monsters[2017][BDRip1080p][Audio jap.y espl Lat./Sub es]
« Respuesta #5 en: 24 de Enero de 2018, 06:28:13 pm »
Gracias por el aporte

 


SimplePortal 2.3.5 © 2008-2012, SimplePortal